american sniper stream 1080p

Сайт советов и инструкций

american sniper stream 1080p

 

 

 

 

Описание. Оригинальное название: American Sniper Название: Снайпер Trailerfps Color space: YUV Chroma subsampling: 4:2:0 Bit depth: 8 bits Scan type: Progressive Bits/(PixelFrame): 0.304 Stream size: 10.4 GiB (88) Title: American Sniper (2014) - Release for HDCLUB Writing Информация о фильме: Название: Снайпер / Американский снайпер Оригинальное название: American Sniper Год выхода: 2014 Жанр: боевик, драма, военный, биография Режиссер: Клинт Иствуд В ролях: Брэдли Купер, Сиенна Миллер, Кайл Галлнер, Коул Конис, Бен Рид Снайпер / American Sniper. Год выпуска: 2014. Жанр: Боевик, драма, военный, биография.Bit depth : 16 bits. Compression mode : Lossy. Stream size : 243 MiB (2). Language : Russian. Stream, watch and get details aboutAmerican Sniper (2015), the full movie online for free.Watch American Sniper, the full movie, online in 1080p(Full HD) in our stream. More on IMDB: American Sniper. Информация о фильме: Название: Снайпер / Американский снайпер Оригинальное название: American Sniper Год выхода: 2014 Жанр: боевик, драма, военный, биография Режиссер: Клинт Иствуд В ролях: Брэдли Купер, Сиенна Миллер, Кайл Галлнер, Коул Конис, Бен Рид Смотреть Онлайн в Высоком Качестве Снайпер / American Sniper (2014) НD 1080p. Внимание! после установки Ace Stream не забудьте перезапустить браузер! Название: Снайпер Оригинальное название: American Sniper Год выхода: 2014 Выпущено: США Жанр: боевик Фильм Американский снайпер смотреть онлайн в HD бесплатно - Крис Кайл - первоклассный снайпер, вызывающий трепет у противника.Американский снайпер (2015) онлайн в HD. 20-05-2017. American Sniper.

Информация о фильме: Название: Снайпер / Американский снайпер Оригинальное название: American Sniper Год выхода: 2014 Жанр: боевик, драма, военный, биография Режиссер: Клинт Иствуд В ролях: Брэдли Купер, Сиенна Миллер, Кайл Галлнер, Коул Конис, Бен Рид Название: Снайпер Оригинальное название: American Sniper Год выхода: 2014 Производство: США / Warner Bros Village Roadshow Pictures, Mad Chance Productions Жанр: боевик, драма, военный, биография Режиссер: Клинт Иствуд В ролях: Брэдли Купер, Сиенна Миллер 1080p. American Sniper Dure : 2h 15min, Film : Amricain, Ralis en 2014, par : Clint Eastwood Avec : Bradley Cooper, Sienna Miller, Kyle Gallner SynopsisAmerican Sniper Streaming VF Complet Youwatch Vostfr American Sniper Streaming VF Complet American Sniper Streaming VF Film Full Movie American Sniper Streaming In HD. Download American Sniper For Free with duration 120 Min and released on 2014-12-25 and MPAA rating is 1.Online Streaming American Sniper A Navy SEAL recounts his military career, which includes more than 150 confirmed kills. Chris Kyle was nothing more than a Texan man who wanted to become a cowboy, but in his thirties he found out that maybe his life needed something different Watch American Sniper (2014) Online. Chris Kyle was nothing more than a Texan man who dreamed of becoming a cowboy, but in his thirties he found out that maybe his life neededMoviewatcher updates its database daily and you will be able to stream videos only in best HD quality: 720p or 1080p. Информация о фильме Название: Снайпер Оригинальное название: American Sniper Год выхода: 2014 Жанр: боевик, драма, военныйfps Color space : YUV Chroma subsampling : 4:2:0 Bit depth : 8 bits Scan type : Progressive Bits/(PixelFrame) : 0.304 Stream size : 10.4 GiB (88) Title Free Streaming American Sniper in HD Format with movie plot "U.S. Navy SEAL Chris Kyle (Bradley Cooper) takes his sole mission—protect his comrades—to heart and becomes one of the most lethal snipers in American history. Online Streaming American Sniper A Navy SEAL recounts his military career, which includes more than 150 confirmed kills. Watch Movie American Sniper High Quality. Watch American Sniper Movie (2015) Free Online 1080p.American Sniper (2015) Full Hollywood Movie Watch Online Free Streaming Download. INFO : Navy SEAL sniper Chris Kyles pinpoint accuracy saves countless lives on the battlefield and turns him into a legend.

Снайпер / American Sniper -Год выпуска: 2014 Страна: США Жанр: боевик, триллер, военный, биография Продолжительность: 02:12:39 Переводbits Compression mode : Lossy Stream size : 607 MiB (4) Title : Оригинал Language : English Default : No Forced : No Text 1 ID : 5 Format Full Streaming American Sniper A Navy SEAL recounts his military career, which includes more than 150 confirmed kills.! Watch free American Sniper online movie without downloading. You can watch online movie streaming in HD 120 Min length. American Sniper (2014). Der tdlichste Scharfschtze in der Geschichte der USA. 11.12.2014 - 2 Std. Крис всё больше и больше привязывался не только к тем людям, с которыми ему пришлось делить скромное жильё, обед и трудности войны, но и к самой войне к постоянной борьбе за жизнь Качество: BDRip ( 1080p) Видео: MPEG-4 AVC, 11200 Кбит/с, 1920x800 Аудио Название: Снайпер / Американский снайпер Оригинальное название: American Sniper Год выхода: 2014 Жанр: боевик, драма, военный, биография Режиссер: Клинт Иствуд В ролях: Брэдли Купер, Сиенна Миллер, Кайл Галлнер, Бен Рид, Элиз Робертсон, Люк Саншайн, Трой Информация о фильме: Название: Снайпер / Американский снайпер Оригинальное название: American Sniper Год выхода: 2014 Жанр: боевик, драма, военный, биография. Скачать .torrent файл (основная ссылка для скачивания файла) Смотреть / Слушать онлайн просмотр (ссылка для просмотра файла через плагин Torrent Stream). American Sniper RPG Kid (1080p) - Продолжительность: 2:31 Peregrinus 8 913 533 просмотра.EPIC HUNTING RIFLE PLAYS | Fortnite Best Stream Moments 60 (Battle Royale) - Продолжительность: 10:04 Daily Fortnite 2 391 329 просмотров. Is Netflix, Amazon, Hulu, Crackle, iTunes, etc. streaming American Sniper ?U.S. Navy SEAL Chris Kyle takes his sole mission—protect his comrades—to heart and becomes one of the most lethal snipers in American history. Watch American Sniper HIGH quality definitons.Watch American Sniper Streaming Full. Экранизация мемуаров «морского котика» из Техаса Криса Кайла, который служил снайпером в Ираке и.fps Color space : YUV Chroma subsampling : 4:2:0 Bit depth : 8 bits Scan type : Progressive Bits/(PixelFrame) : 0.304 Stream size : 10.4 GiB (88) Title : American Sniper (2014) Информация о фильме: Название: Снайпер / Американский снайпер Оригинальное название: American Sniper Год выхода: 2014 Жанр: боевик, драма, военный, биография Режиссер: Клинт Иствуд В ролях: Брэдли Купер, Сиенна Миллер, Кайл Галлнер, Коул Конис, Бен Рид Watch Online American Sniper full movie online Free [putlocker-Megashare] American Sniper film 2014 is presently accessible to Watch American Sniper Online Full Movie Streaming.Watch American Sniper HD 1080p. So he joined the SEALs in order to become a sniper. After marrying, Kyle and th123 stream. Thanks for your report! We will fix it asap. Watch American Sniper (2014) HD 1080p. Free download and watch American Sniper (2014). We have about more than 5000k movies ready to play and download with quality High Definitions for FREE.Torrent stream HD download. Информация о фильме: Название: Снайпер Оригинальное название: American Sniper Год выхода: 2014 Жанр: боевик, драма, военный, биография Режиссер: Клинт Иствуд В ролях: Брэдли Купер, Сиенна Миллер, Кайл Галлнер, Бен Рид, Элиз Робертсон, Люк Саншайн, Трой В подборке: Снайперы,Война в Ираке,На реальных событиях. Жанр: боевик, драма, военный, биография Страна: США Год выпуска: 2014 Режиссер: Клинт Иствуд Продолжительность: 132 мин. Перевод: Полный дубляж [ Лицензия! ]Торрент 2 | BDRip 1080p. Скачать фильм Снайпер через торрент бесплантно в хорошем качестве Описание: Экранизация мемуаров «морского котика» из Техаса Криса Кайла, который служил снайпером в Ираке и стал рекордсменом по числу Название: Снайпер / Американский снайпер Оригинальное название: American Sniper Год выхода: 2014 Жанр: боевик, драма, военный, биография Режиссер: Клинт Иствуд В ролях: Брэдли Купер, Сиенна Миллер, Кайл Галлнер, Бен Рид, Элиз Робертсон, Люк Саншайн, Трой Скачать .torrent файл (основная ссылка для скачивания файла) Смотреть / Слушать онлайн просмотр (ссылка для просмотра файла через плагин Torrent Stream). Название: Снайпер: НаследиеОригинальное название: Sniper: LegacyГодACE STREAM HD. Технические данные: Качество: WEB-DL (1080p) Видео: MPEG-4 AVC, 5793Год выпуска: 2017 Жанр: триллер, ужасы, зомби, постапокалипсис Выпущено: США, AMC Studios, American Movie Боевик, триллер, драма. Режиссер: Клинт Иствуд. В ролях: Брэдли Купер, Сиенна Миллер, Кайл Галлнер и др. Картина основана на реальных событиях, которые происходили на территории Соединенных Штатов Америки и Ирака. American Sniper. ЖанрБоевик «Американский снайпер» оказательство тому. История разворачивается в самой горячей точке планеты, где идет война, где нет времени на жалость, а лишь на защиту себя и своих прав. Скачать Snaiper--American-Sniper-2014-BDRip-1080p--Licenziya.torrent. Как качать? Рипы и переводы Использовать оформление В закладки Воспроизвести через Ace Stream HD. Название: Снайпер Оригинальное название: American Sniper Год выпуска: 2014 Жанр: Боевик, военный, биография, драма Выпущено: США, 22 Indiana Pictures, Mad Chance Productions, Malpaso Productions, Village Roadshow Pictures Режиссер: Клинт Иствуд В ролях: Брэдли Купер Watch american sniper 2014 movie online full fast stream in high quality. Furthermore fast HD stream american sniper which is top IMDb ranked war movie of all time. American sniper best top action rifle movie free online stream in 1080p format only on movies4u. Watch Streaming American Sniper A Navy SEAL recounts his military career, which includes more than 150 confirmed kills. Watch Movie American Sniper High Quality. You can play American Sniper Online Streaming in HD Now. Скачать .

torrent файл (основная ссылка для скачивания файла) Смотреть / Слушать онлайн просмотр (ссылка для просмотра файла через плагин Torrent Stream). Watch american sniper 1080p streams online. Click for organised searchterms hoster selection.Watch One Soldiers Story: The Journey of American Sniper (2015) Online Free Full Movie Putlocker | HD Movies Watch. Название: Снайпер Оригинальное название: American Sniper Год выпуска: 2014 Жанр: Боевик, военный, биография, драма Выпущено: США, 22 Indiana Pictures, Mad Chance Productions, Malpaso Productions, Village Roadshow Pictures Режиссер: Клинт Иствуд. Chris Kyle was nothing more than a Texan man who wanted to become a cowboy, but in his thirties he found out that maybe his life needed something different Информация о фильме: Название:Снайпер Оригинальное название:American Sniper Год выхода:2014 Снято:США Продолжительность:132 мин. Жанр:Боевик, Драма, Военные Режиссёр:Клинт Иствуд Актёры:Брэдли Купер, Кайл Галлнер, Коул Конис, Бен Рид

Новое на сайте: